Results 1 to 8 of 8

Thread: CMCT-PT

  1. #1
    Member illusive's Avatar
    Join Date
    24.10.10
    P2P Client
    What ?! That's Private!
    Posts
    357
    Activity Longevity
    4/20 15/20
    Today Posts
    1/5 ssssss357

    CMCT-PT

    Tracker: CMCT-PT
    Tracker URL: hdcmct.org
    Open Signups?: some times/by invites
    Category: HD


    Logo:




    Browse Page:







    Stats





    Bonus:



    Classes:



    Forum:



    Rules:








    CMCT-PT is one new HD tracker that grows slowly. Found there good internals (CMCT & @DAKEAI & @GGZLI) encoding 1080p and 720p blu-ray old and new movies. Speeds on torrents are fine. Cheating there not a problem I tried speeds <1500 Kb/s up and 500 Kb/s down. As you can see files not so many but they encoding good classic movies every small period of time. My opinion that their files can found anywhere else maybe they'll be one of the best in the future.
    Reply With QuoteReply With Quote
    Thanks

  2. Who Said Thanks:

    SealLion (03.09.12) , flowerorange (25.04.12) , Instab (25.04.12) , shoulder (24.04.12) , anon (24.04.12)

  3. #2
    12 Many Champion flowerorange's Avatar
    Join Date
    09.04.11
    Location
    zombie garden
    P2P Client
    utorrent,mr,rm
    Posts
    233
    Activity Longevity
    0/20 14/20
    Today Posts
    0/5 ssssss233
    they encode the BD movie with a lower Bitrate and result in smaller Size(2.5Gb for 720P).
    If you are looking for small 720P encode movie, thats your place.
    Reply With QuoteReply With Quote
    Thanks

  4. #3
    Member illusive's Avatar
    Join Date
    24.10.10
    P2P Client
    What ?! That's Private!
    Posts
    357
    Activity Longevity
    4/20 15/20
    Today Posts
    1/5 ssssss357
    Quote Originally Posted by flowerorange View Post
    they encode the BD movie with a lower Bitrate and result in smaller Size(2.5Gb for 720P).
    If you are looking for small 720P encode movie, thats your place.
    Yeah but not that small here are some of most recent releases encoded by their internals

    Sherlock.Holmes.A.Game.of.Shadows.2011.BluRay.720p .x264.AC3-CMCT
    Code:
    The tablets sources: Sherlock.Holmes.A.Game.of.Shadows.2011.1080p.Blu-ray.EUR.AVC.DTS-HDMA.5.1.DIY-beAst
    Duration: 2:08:44 (h: m: s)
    Frame rate: 23.976 fps,
    Resolution: 1280 x 720 (16:9)
    Video: x264, @ 3 129 Kbps
    Parameters: Me = umh / subme = 11
    Audio: AC3, 5.1 @ 640 kbps, (English)
    http://i.imgur.com/e250V.jpg

    Sherlock.Holmes.A.Game.of.Shadows.2011.BluRay.720P .DTS.x264-DAKEAI@CMCT
    Code:
    Size:  5.40 GB
    General
    Unique ID                                : 220202634621687323960392526148338164190 (0xA5A97C1AE01DDC319578AE07B69FA1DE)
    Complete name                            : O:\Sherlock.Holmes.A.Game.of.Shadows.2011.BluRay.720P.DTS.x264-DAKEAI@CMCT\Sherlock.Holmes.A.Game.of.Shadows.2011.BluRay.720P.DTS.x264-CMCT.mkv
    Format                                   : Matroska
    Format version                           : Version 2
    File size                                : 5.40 GiB
    Duration                                 : 2h 8mn
    Overall bit rate                         : 6 007 Kbps
    Encoded date                             : UTC 2012-04-22 11:54:00
    Writing application                      : mkvmerge v5.5.0 ('Healer') built on Apr  6 2012 21:43:24
    Writing library                          : libebml v1.2.3 + libmatroska v1.3.0
    
    Video
    ID                                       : 1
    Format                                   : AVC
    Format/Info                              : Advanced Video Codec
    Format profile                           : High@L4.1
    Format settings, CABAC                   : Yes
    Format settings, ReFrames                : 9 frames
    Codec ID                                 : V_MPEG4/ISO/AVC
    Duration                                 : 2h 8mn
    Bit rate                                 : 4 497 Kbps
    Width                                    : 1 280 pixels
    Height                                   : 544 pixels
    Display aspect ratio                     : 2.35:1
    Frame rate                               : 23.976 fps
    Color space                              : YUV
    Chroma subsampling                       : 4:2:0
    Bit depth                                : 8 bits
    Scan type                                : Progressive
    Bits/(Pixel*Frame)                       : 0.269
    Stream size                              : 3.94 GiB (73%)
    Title                                    : Sherlock Holmes A Game of Shadows
    Writing library                          : x264 core 120 r2164 da19765
    Encoding settings                        : cabac=1 / ref=9 / deblock=1:-2:-2 / analyse=0x3:0x113 / me=umh / subme=11 / psy=1 / psy_rd=1.10:0.15 / mixed_ref=1 / me_range=48 / chroma_me=1 / trellis=2 / 8x8dct=1 / cqm=0 / deadzone=21,11 / fast_pskip=0 / chroma_qp_offset=-3 / threads=16 / sliced_threads=0 / nr=0 / decimate=1 / interlaced=0 / bluray_compat=0 / constrained_intra=0 / bframes=6 / b_pyramid=2 / b_adapt=2 / b_bias=0 / direct=3 / weightb=1 / open_gop=0 / weightp=2 / keyint=240 / keyint_min=23 / scenecut=40 / intra_refresh=0 / rc_lookahead=60 / rc=2pass / mbtree=1 / bitrate=4497 / ratetol=1.0 / qcomp=0.60 / qpmin=10 / qpmax=51 / qpstep=4 / cplxblur=20.0 / qblur=0.5 / ip_ratio=1.40 / aq=1:1.00
    Language                                 : English
    Default                                  : Yes
    Forced                                   : No
    
    Audio
    ID                                       : 2
    Format                                   : DTS
    Format/Info                              : Digital Theater Systems
    Codec ID                                 : A_DTS
    Duration                                 : 2h 8mn
    Bit rate mode                            : Constant
    Bit rate                                 : 1 510 Kbps
    Channel(s)                               : 6 channels
    Channel positions                        : Front: L C R, Side: L R, LFE
    Sampling rate                            : 48.0 KHz
    Bit depth                                : 24 bits
    Compression mode                         : Lossy
    Stream size                              : 1.36 GiB (25%)
    Title                                    : DTS 1509Kbps
    Language                                 : English
    Default                                  : Yes
    Forced                                   : No
    http://i.imgur.com/f5lyY.jpg

    Sherlock.Holmes.2009.Bluray.720p.x264.AC3-CMCT
    Code:
    Size:  3.80 GB
    Summary
    Full Name: D: \ TDDOWNLOAD \ Sherlock Holmes .2009. Guoying bilingual English subtitles £ of CMCT Jiuzhou off \ [Sherlock Holmes (Guoying)]. Sherlock.Holmes.2009.Bluray.720p.x264. AC3-CMCT.mkv
    File Format: Matroska
    File size: 3.80 GiB
    Length: 2 hours 8 minutes
    Average mixing rate: 4 236 Kbps
    Encoded date: UTC 2012-02-20 08:10:39
    Coding process: mkvmerge v4.7.0 ('Just Like You Imagined') compiled Apr 21 2011 01:13:14
    Writing library: libebml v1.2.0 + libmatroska v1.1.0
    Cover: Yes / Yes
    
    Video
    ID: 1
    File Format: AVC
    Format / Info: Advanced Video Codec
    Format profile: High@L4.1
    Format settings, CABAC: Yes
    Formatting, ReFrames: 5 frames
    Mixed mode: Container profile = Unknown@4.1
    Encoding settings ID: V_MPEG4/ISO/AVC
    Length: 2 hours 8 minutes
    Bit rate: 3 128 Kbps
    Nominal bit rate: 3 197 Kbps
    Width: 1280 pixels
    Screen Height: 720 pixels
    Aspect ratio: 16:9
    Frame rate: 23.976 fps,
    Resolution: 8
    Colorimetry: 4:2:0
    Scan type: Progressive Scan
    bits / (pixel * frame) (data density): 0.142
    Size: 2.80 GiB (74%)
    Writing library: x264 core 120 r2164 da19765
    Encoding settings: cabac = 1 / ref = 5 / deblock = 1: -2: -2 / analyse = 0x3: 0x133 / me = hex / subme = 9 / psy = 1 / psy_rd = 1.00:0.00 / mixed_ref = 1 / me_range = 16 / chroma_me = 1 / trellis = 0 / 8x8dct = 1 / cqm = 0 / deadzone = 21,11 / fast_pskip = 1 / chroma_qp_offset = -2 / threads = 12 / sliced_threads = 0 / nr = 0 / decimate = 1 / interlaced = 0 / bluray_compat = 0 / constrained_intra = 0 / bframes = 3 / b_pyramid = 2 / b_adapt = 1 / b_bias = 0 / direct = 1 / weightb = 0 / open_gop = 0 / weightp = 2 / keyint = 240 / keyint_min = 23 / scenecut = 40 / intra_refresh = 0 / rc = 2pass / mbtree = 0 / bitrate = 3197 / ratetol = 1.0 / qcomp = 0.60 / qpmin = 10 / qpmax = 59 / qpstep = 4 / cplxblur = 20.0 / qblur = 0.5 / ip_ratio = 1.40 / pb_ratio = 1.30 / aq = 1:1.00
    
    Audio # 1
    ID: 2
    File Format: AC-3
    Format / Info: Audio Coding 3
    Encoding settings ID: A_AC3,
    Length: 2 hours 8 minutes
    Bit rate mode: CBR
    Bit rate: 640 Kbps
    Channels: 6 channels
    Channel positions: Front: LCR, Surround: LR, the LFE
    Sampling rate: 48.0 KHz,
    Size: 588 MiB of (15%)
    Title: eng
    
    Audio # 2
    ID: 3
    File Format: AC-3
    Format / Info: Audio Coding 3
    Encoding settings ID: A_AC3,
    Length: 2 hours 8 minutes
    Bit rate mode: CBR
    Bit rate: 384 Kbps
    Channels: 6 channels
    Channel positions: Front: LCR, Surround: LR, the LFE
    Sampling rate: 48.0 KHz,
    Size: 353 MiB of (9%)
    Title: chs
    Language: Chinese
    
    Text # 1
    ID: 4
    File Format: ASS
    Encoding settings ID: S_TEXT, / ASS
    Codec ID / information: the Advanced Sub Station, the Alpha
    Title: chseng
    Language: Chinese
    
    Text # 2
    ID: 5
    File Format: ASS
    Encoding settings ID: S_TEXT, / ASS
    Codec ID / information: the Advanced Sub Station, the Alpha
    Title: engchs
    
    Text # 3
    ID: 6
    File Format: ASS
    Encoding settings ID: S_TEXT, / ASS
    Codec ID / information: the Advanced Sub Station, the Alpha
    Title: chs
    Language: Chinese
    
    Text # 4
    ID: 7
    File Format: ASS
    Encoding settings ID: S_TEXT, / ASS
    Codec ID / information: the Advanced Sub Station, the Alpha
    Title: cht
    Language: Chinese
    
    Text # 5
    ID: 8
    File Format: ASS
    Encoding settings ID: S_TEXT, / ASS
    Codec ID / information: the Advanced Sub Station, the Alpha
    Title: eng
    Mission.Impossible.Ghost.Protocol.2011.BluRay.x264 .DTS.MiniBD1080p-CMCT
    Code:
    Size:  13.01 GB
    isc Title.........: Mission.Impossible.Ghost.Protocol.2011.BluRay.x264.DTS.MiniBD1080p-CMCT
    Disc Size..........: 14,515,271,288 bytes
    Protection.........: AACS
    BD-Java............: No
    Playlist...........: 00000.MPLS
    Size...............: 14,515,163,136 bytes
    Length.............: 2:12:56
    Total Bitrate......: 14.56 Mbps
    Video..............: MPEG-4 AVC Video / 12061 kbps / 1080p / 23.976 fps / 16:9 / High Profile 4.1
    Audio..............: English / DTS Audio / 5.1 / 48 kHz / 1509 kbps / 24-bit
    Subtitle...........: Chinese / 44.183 kbps   中英特效字幕 (BY CMCT 阿明)
    Subtitle...........: Chinese / 24.942 kbps   简体中文特效字幕(BY TTG ZY0591)
    Subtitle...........: Chinese / 25.769 kbps   繁体中文特效字幕(BY TTG ZY0591)
    Subtitle...........: Chinese / 30.345 kbps   国配对应字幕(预封装 BY CMCT论坛会员knuc12345)
    Subtitle...........: Chinese / 27.724 kbps   简体中文特效字幕(BY CMCT 阿明)
    Subtitle...........: English / 18.248 kbps   英文字幕
    Encoder............: CMCT@虚无
    http://i.imgur.com/wooTd.jpg
    http://i.imgur.com/XUNzr.jpg
    http://i.imgur.com/XNInE.jpg
    http://i.imgur.com/aqpDN.jpg

    Mission.Impossible.Ghost.Protocol.2011.BluRay.1080 P.DTS.x264-DAKEAI@CMCT
    Code:
    General
    Unique ID                        : 236506042372335076314490618339706351309 (0xB1ED682AD138726EA9FAD64A89A52ECD)
    Complete name                    : O:\Mission.Impossible.Ghost.Protocol.2011.BluRay.1080P.DTS.x264-DAKEAI@CMCT\Mission.Impossible.Ghost.Protocol.2011.BluRay.1080P.DTS.x264-CMCT.mkv
    Format                           : Matroska
    Format version                   : Version 2
    File size                        : 13.0 GiB
    Duration                         : 2h 12mn
    Overall bit rate                 : 14.0 Mbps
    Encoded date                     : UTC 2012-04-05 00:06:12
    Writing application              : mkvmerge v5.4.0 ('Piper') built on Mar 10 2012 13:34:39
    Writing library                  : libebml v1.2.3 + libmatroska v1.3.0
    
    Video
    ID                               : 1
    Format                           : AVC
    Format/Info                      : Advanced Video Codec
    Format profile                   : High@L4.1
    Format settings, CABAC           : Yes
    Format settings, ReFrames        : 5 frames
    Codec ID                         : V_MPEG4/ISO/AVC
    Duration                         : 2h 12mn
    Bit rate                         : 12.5 Mbps
    Width                            : 1 920 pixels
    Height                           : 800 pixels
    Display aspect ratio             : 2.40:1
    Frame rate                       : 23.976 fps
    Color space                      : YUV
    Chroma subsampling               : 4:2:0
    Bit depth                        : 8 bits
    Scan type                        : Progressive
    Bits/(Pixel*Frame)               : 0.339
    Stream size                      : 11.3 GiB (87%)
    Title                            : Mission.Impossible.4
    Writing library                  : x264 core 120 r2164 da19765
    Encoding settings                : cabac=1 / ref=5 / deblock=1:-3:-3 / analyse=0x3:0x113 / me=umh / subme=11 / psy=1 / psy_rd=1.10:0.15 / mixed_ref=1 / me_range=48 / chroma_me=1 / trellis=2 / 8x8dct=1 / cqm=0 / deadzone=21,11 / fast_pskip=0 / chroma_qp_offset=-3 / threads=16 / sliced_threads=0 / nr=0 / decimate=1 / interlaced=0 / bluray_compat=0 / constrained_intra=0 / bframes=6 / b_pyramid=2 / b_adapt=2 / b_bias=0 / direct=3 / weightb=1 / open_gop=0 / weightp=2 / keyint=240 / keyint_min=23 / scenecut=40 / intra_refresh=0 / rc_lookahead=60 / rc=2pass / mbtree=1 / bitrate=12468 / ratetol=1.0 / qcomp=0.60 / qpmin=10 / qpmax=51 / qpstep=4 / cplxblur=20.0 / qblur=0.5 / ip_ratio=1.40 / aq=1:1.00
    Language                         : English
    Default                          : Yes
    Forced                           : No
    
    Audio
    ID                               : 2
    Format                           : DTS
    Format/Info                      : Digital Theater Systems
    Codec ID                         : A_DTS
    Duration                         : 2h 12mn
    Bit rate mode                    : Constant
    Bit rate                         : 1 510 Kbps
    Channel(s)                       : 6 channels
    Channel positions                : Front: L C R, Side: L R, LFE
    Sampling rate                    : 48.0 KHz
    Bit depth                        : 24 bits
    Compression mode                 : Lossy
    Stream size                      : 1.40 GiB (11%)
    Title                            : DTS 1509Kbps (From TrueHD7.1)
    Language                         : English
    Default                          : Yes
    Forced                           : No
    http://i.imgur.com/Wh2fn.jpg
    http://i.imgur.com/0JQdQ.jpg
    http://i.imgur.com/WIyrX.jpg
    http://i.imgur.com/SBVL8.jpg

    kinda small maybe not like pixelhd encodes or brrips. there is screenshotes at end of every code.
    Last edited by illusive; 26.04.12 at 00:31.
    Reply With QuoteReply With Quote
    Thanks

  5. Who Said Thanks:

    SealLion (03.09.12) , flowerorange (26.04.12)

  6. #4
    Member JohnareyouOK's Avatar
    Join Date
    31.01.19
    Location
    You guess
    Posts
    72
    Activity Longevity
    6/20 1/20
    Today Posts
    1/5 sssssss72
    CMCT-PT News
    It is planned to open the invitation registration system for a short period of time between March 22 and 24 to reduce the pressure on the mail system.
    The specific notice is as follows:

    1) Opening hours: from 19: 00 to 23: 00 on March 22 and 24 and from 12: 00 to 23: 00 on March 23;
    2) Fever and above levels can send the invitation code they already have. The invitation is valid for 24 hours and will not be replenished when it expires.
    A) ashes and above can send from 19: 00 to 23: 00 on the 22nd.
    B) fever and above can send on the 23rd between 12: 00 and 23: 00, and also can buy a new invitation code by 350,000 bonus point at this time.
    C) master and above can send from 19: 00 to 23: 00 on the 24th.
    D) immortals and above can send from 19: 00 on the 22nd to 23: 00 on the 24th.
    Reply With QuoteReply With Quote
    Thanks

  7. #5
    Member JohnareyouOK's Avatar
    Join Date
    31.01.19
    Location
    You guess
    Posts
    72
    Activity Longevity
    6/20 1/20
    Today Posts
    1/5 sssssss72
    CMCT News

    The management of CMCT has been implicated in a copyright case. According to his/her own statement, he/she has been detained by the police for one day to take a statement. Affected by this, CMCT has closed its website and tracker server. Although there is no clear statement, most people speculate that the closure this time may be permanent or at least will not be resumed in the near future.

    Scared by this, most Chinese private trackers have recently tightened their policies:
    The invitation channel was closed. The Telegram/QQ groups forbid new users to join, and most trackers prohibit anyone from discussing and mentioning them in public, including but not limited to tieba, weibo, forums, WeChat groups, QQ groups, etc.
    Reply With QuoteReply With Quote
    Thanks

  8. Who Said Thanks:

    SharonTow (22.05.19) , alpacino (19.05.19) , anon (19.05.19)

  9. #6
    Member H265's Avatar
    Join Date
    26.05.13
    Location
    Tengoku
    P2P Client
    ¯\_(ツ)_/¯
    Posts
    295
    Activity Longevity
    6/20 10/20
    Today Posts
    0/5 ssssss295
    Gztown has also shutdown.
    Reply With QuoteReply With Quote
    Thanks

  10. #7
    Member JohnareyouOK's Avatar
    Join Date
    31.01.19
    Location
    You guess
    Posts
    72
    Activity Longevity
    6/20 1/20
    Today Posts
    1/5 sssssss72
    Quote Originally Posted by H265 View Post
    Gztown has also shutdown.
    According to gzt official QQ group, it's still uncertain whether gzt is closed permanently or temporarily. at least the tracker and webpages except homepage and torrent pages are still working fine. copyright law enforcement suddenly become tighter recently. dunno whether its related to the trade war. sigh...
    Reply With QuoteReply With Quote
    Thanks

  11. #8
    Member JohnareyouOK's Avatar
    Join Date
    31.01.19
    Location
    You guess
    Posts
    72
    Activity Longevity
    6/20 1/20
    Today Posts
    1/5 sssssss72
    Affected by CMCT incident, tightening policies of most chinese trackers still have not been cancelled yet. Some tips to the recent inability of those trackers to log in:
    关于最近部分站点无法登录的一些解决方法,仅供参考

    瓷器/HDChina
    *如果你需要登陆站点,请私聊机器人 @hdchina_group_bot 使用命令 “/letmelogin” 获取登录链接。
    *链接不含个人信息,可以复制给你朋友使用(有效期5分钟)。
    *当前网站登录的小饼干一直有效,可以自行备份。
    * TG获取登陆窗口为当前临时方案。
    有异议请输入 @admin 可以向所有管理员举报
    * If you need to log in to the site, please privately talk to the robot @hdchina_group_bot on Telegram using the command "/letmelogin" to get the login link.
    * The link does not contain personal information and can be copied to your friends (valid for 5 minutes).
    * The cookies currently registered on the website are always valid and can be backed up by yourselves.
    * TG getting the login url is just a current temporary plan.
    If you have any objections, please enter @admin in TG group to report it to all administrators.

    好多油/HDU
    临时登录密钥请私聊HDU官方机器人 @hduptbot 输入 /getloginkey 获取
    If you need to get the temporary login key, please chat with the robot @hduptbot on Telegram and enter /getloginkey

    听听歌/TTG
    vip及以上级别,无法登录可以私信2群管理员invite,其他级别请勿私信,可以关注TG群消息等待不 定期的开门
    Vip level and above, if can not log in, can private administrator of chat group no. 2, invite. Other levels, please pay attention to TG group message waiting for irregular opening

    我堡/ourbits
    可以私聊官方TG群在线管理员获取临时登录链接,无法私聊的可以在TG群里说明
    You can privately chat with the official TG group online administrator to get a temporary login link. If you can't chat privately, you can explain it in the TG group.

    影客/Meihezi or YingK
    可以私聊官方TG群管理员 @wamano 获取临时登录链接,无法私聊的可以在TG群里说明
    You can privately chat with the official TG group administrator @wamano to get a temporary login link. If you can't chat privately, you can explain it in the TG group.
    Reply With QuoteReply With Quote
    Thanks

  12. Who Said Thanks:

    illusive (28.05.19) , anon (27.05.19)

Tags for this Thread

Posting Permissions

  • You may not post new threads
  • You may not post replies
  • You may not post attachments
  • You may not edit your posts
  •